<?xml version="1.0" standalone="no"?>
<!DOCTYPE svg PUBLIC "-//W3C//DTD SVG 1.1//EN" "http://www.w3.org/Graphics/SVG/1.1/DTD/svg11.dtd" >
<svg xmlns="http://www.w3.org/2000/svg">
<metadata>
<json>
<![CDATA[
{
	"fontFamily": "icomoon",
	"description": "Font generated by IcoMoon.",
	"version": "Version 1.0",
	"majorVersion": 0,
	"fontId": "icomoon",
	"psName": "icomoon",
	"subFamily": "Regular",
	"fullName": "icomoon"
}
]]>
</json>
</metadata>
<defs>
<font id="icomoon" horiz-adv-x="1024">
<font-face units-per-em="1024" ascent="960" descent="-64" />
<missing-glyph horiz-adv-x="1024" />
<glyph unicode="&#x20;" horiz-adv-x="512" d="" />
<glyph unicode="&#xe900;" glyph-name="youtube" data-tags="youtube" horiz-adv-x="1536" d="M1463.996 797.333c32-112 32-352 32-352s0-237.333-32-351.996c-15.991-64-66.662-112.009-128-128-114.662-29.338-567.996-29.338-567.996-29.338s-456 0-570.667 29.338c-61.333 15.991-112 64-128 128-32 114.662-32 351.996-32 351.996s0 240 32 352c16 64 66.667 114.667 128 130.667 114.667 32 570.667 32 570.667 32s453.333 0 567.996-32c61.338-16 112.009-66.667 128-130.667zM618.667 229.333l378.667 216-378.667 216v-432z" />
<glyph unicode="&#xe901;" glyph-name="X" data-tags="X" d="M866.483 877.953c14.016-12.737 15.046-34.421 2.31-48.433l-264.737-291.216 268.289-421.6c6.72-10.56 7.155-23.936 1.133-34.906s-17.542-17.786-30.054-17.786h-205.716c-11.723 0-22.632 5.99-28.926 15.878l-173.55 272.721-252.154-277.38c-12.737-14.010-34.421-15.040-48.433-2.304s-15.044 34.419-2.307 48.429l264.735 291.219-268.291 421.599c-6.718 10.557-7.151 23.937-1.13 34.906s17.542 17.787 30.055 17.787h205.715c11.722 0 22.632-5.989 28.925-15.878l173.551-272.722 252.156 277.377c12.736 14.012 34.419 15.044 48.429 2.307zM220.165 818.297l436.366-685.715h124.435l-436.365 685.715h-124.436z" />
<glyph unicode="&#xe902;" glyph-name="phone" data-tags="phone" d="M907.294 886.588c39.532-9.412 67.765-45.176 67.765-84.706 0-463.059-376.471-835.765-837.647-835.765-39.529 0-75.294 26.353-84.706 65.885l-39.529 176.935c-9.412 41.418 11.294 82.824 48.941 99.768l192 80.941c33.882 15.059 75.294 5.647 99.765-24.471l62.118-75.294c97.882 54.585 180.706 135.529 233.409 233.412l-75.291 62.118c-30.118 24.471-39.529 65.882-24.471 99.765l82.824 192c15.059 37.647 56.471 58.353 97.882 48.941l176.941-39.529zM141.176 56.471c408.471 1.879 741.644 333.176 743.529 741.647l-171.291 39.529-79.065-184.471 128-105.412c-88.468-186.353-184.468-282.35-370.821-370.824l-105.412 128-184.471-79.059 39.529-169.412z" />
<glyph unicode="&#xe903;" glyph-name="mega-menu" data-tags="mega-menu" horiz-adv-x="1707" d="M1706.667-64h-1462.857v146.286h1462.857v-146.286zM1706.667 374.857h-1706.667v146.286h1706.667v-146.286zM1706.667 813.714h-1462.857v146.286h1462.857v-146.286z" />
<glyph unicode="&#xe904;" glyph-name="magnifying-glass" data-tags="magnifying-glass" d="M956.235 77.179c9.409-9.415 9.409-24.474 0-32.003l-43.297-43.291c-7.529-9.415-22.588-9.415-31.997 0l-227.762 227.762c-3.771 5.65-5.65 11.294-5.65 16.938v24.474c-69.647-58.35-158.118-94.118-256-94.118-216.471 0-391.529 175.056-391.529 391.529 0 214.588 175.059 391.529 391.529 391.529 214.588 0 391.529-176.941 391.529-391.529 0-97.882-37.647-188.235-96.003-256h24.474c5.644 0 11.294-3.765 16.944-7.529l227.762-227.762zM391.529 267.294c165.647 0 301.176 133.647 301.176 301.176 0 165.647-135.529 301.176-301.176 301.176-167.529 0-301.176-135.529-301.176-301.176 0-167.529 133.647-301.176 301.176-301.176z" />
<glyph unicode="&#xe905;" glyph-name="location-dot" data-tags="location-dot" horiz-adv-x="783" d="M367.059 943.059c200.735 0 367.059-164.412 367.059-367.059 0-137.647-45.881-179.706-290.588-569.705-36.324-57.356-118.529-57.356-154.853 0-244.706 389.999-288.676 432.058-288.676 569.705 0 200.735 162.5 367.059 367.059 367.059zM367.059 56.001c244.703 393.823 275.296 414.852 275.296 519.999 0 151.029-124.267 275.294-275.296 275.294-152.941 0-275.294-124.265-275.294-275.294 0-105.147 30.588-130 275.294-519.999zM214.118 576c0 84.117 66.912 152.941 152.941 152.941 84.117 0 152.941-68.824 152.941-152.941 0-86.029-68.824-152.941-152.941-152.941-86.029 0-152.941 66.912-152.941 152.941z" />
<glyph unicode="&#xe906;" glyph-name="linkedin" data-tags="linkedin" horiz-adv-x="956" d="M213.333-64h-198.4v637.867h198.4v-637.867zM113.067 659.2c-61.867 0-113.067 53.333-113.067 117.333 0 87.467 93.867 142.933 170.667 98.133 36.267-19.2 57.6-57.6 57.6-98.133 0-64-51.2-117.333-115.2-117.333zM953.603-64h-196.267v309.33c0 74.67-2.137 168.537-104.537 168.537s-117.333-78.933-117.333-162.133v-315.733h-198.4v637.867h189.867v-87.467h2.133c27.733 49.067 91.733 102.4 187.733 102.4 200.533 0 238.933-132.267 238.933-302.933v-349.867h-2.13z" />
<glyph unicode="&#xe907;" glyph-name="fb" data-tags="fb" horiz-adv-x="640" d="M558 384h-150v-448h-200v448h-164v184h164v142c0 160 96 250 242 250 70 0 144-14 144-14v-158h-82c-80 0-104-48-104-100v-120h178l-28-184z" />
<glyph unicode="&#xe908;" glyph-name="email" data-tags="email" horiz-adv-x="1339" d="M1156.923 920.615c64 0 118.154-54.154 118.154-118.154v-708.923c0-66.465-54.154-118.154-118.154-118.154h-1024c-66.462 0-118.154 51.688-118.154 118.154v708.923c0 64 51.692 118.154 118.154 118.154h1024zM1156.923 802.462h-1024v-100.923c54.154-46.769 142.769-115.692 329.846-263.385 41.846-32 123.077-110.769 182.154-108.308 56.615-2.462 137.846 76.308 179.696 108.308 187.077 147.692 275.692 216.615 332.304 263.385v100.923zM132.923 93.538h1024v455.385c-56.611-44.308-137.846-108.308-258.465-204.308-56.611-41.846-150.15-135.385-253.535-132.923-105.846-2.462-201.846 91.077-256 132.923-120.615 96-201.846 160-256 204.308v-455.385z" />
<glyph unicode="&#xe909;" glyph-name="arrow-up" data-tags="arrow-up" horiz-adv-x="964" d="M20.235 450.353c-10.588 8.471-10.588 25.412 0 36l442.588 442.588c10.589 10.588 25.412 10.588 36 0l442.588-442.588c10.589-10.588 10.589-27.529 0-36l-40.237-42.353c-10.583-10.588-27.528-10.588-35.997 0l-328.237 328.235v-722.116c0-14.824-12.706-25.413-25.411-25.413h-59.294c-14.823 0-25.411 10.589-25.411 25.413v722.116l-330.353-328.235c-8.47-10.588-25.411-10.588-36 0l-40.235 42.353z" />
<glyph unicode="&#xe90a;" glyph-name="arrow-right" data-tags="arrow-right" horiz-adv-x="652" d="M637.091 421.818l-424.727-430.541c-14.545-14.55-37.818-14.55-49.455 0l-58.182 58.177c-14.545 14.545-14.545 34.909 0 49.455l343.273 349.091-343.273 346.182c-14.545 14.545-14.545 37.818 0 49.455l58.182 58.182c11.636 14.545 34.909 14.545 49.455 0l424.727-430.545c14.545-14.545 14.545-34.909 0-49.455z" />
<glyph unicode="&#xe90b;" glyph-name="angle-down" data-tags="angle-down" horiz-adv-x="1707" d="M875.334 61.334l-690.668 686c-23.333 18.666-23.333 55.999 0 79.333l93.334 88.667c23.332 23.333 55.999 23.333 79.333 0l560-550.666 555.334 550.666c23.332 23.333 60.667 23.333 79.333 0l93.332-88.667c23.334-23.333 23.334-60.667 0-79.333l-690.666-686c-23.334-23.334-56.001-23.334-79.333 0z" />
<glyph unicode="&#xe90c;" glyph-name="quote" data-tags="quote" horiz-adv-x="1382" d="M324.754-47.596c-41.326-0.044-82.254 7.992-120.447 23.647-38.193 15.657-72.902 38.625-102.143 67.594s-52.439 63.37-68.27 101.235c-15.831 37.868-23.984 78.459-23.993 119.455-0.009 40.993 8.126 81.587 23.94 119.462s38.998 72.284 68.225 101.266c29.228 28.982 63.926 51.965 102.112 67.638s79.112 23.726 120.438 23.7c6.336-0.12 12.37-2.703 16.806-7.191 4.439-4.488 6.922-10.524 6.922-16.809 0-6.287-2.486-12.321-6.925-16.809-4.436-4.488-10.473-7.068-16.809-7.188-35.773-0.169-71.149-7.457-104.032-21.435s-62.603-34.36-87.401-59.937c-24.798-25.58-44.17-55.834-56.967-88.973s-18.761-68.49-17.537-103.956c3.556-66.089 31.621-128.538 78.796-175.334s110.127-74.637 176.748-78.164c35.758-1.236 71.404 4.664 104.819 17.352s63.926 31.903 89.715 56.507c25.789 24.602 46.336 54.093 60.419 86.72 14.085 32.63 21.42 67.73 21.573 103.224-0.381 181.688-59.768 358.42-169.354 503.998l-116.127 153.598c-3.689 5.1-5.217 11.432-4.257 17.637s4.332 11.79 9.395 15.558c5.061 3.767 11.41 5.418 17.684 4.596s11.976-4.048 15.88-8.989l116.124-153.596c139.226-180.858 279.032-577.177 82.65-757.593-58.419-56.154-136.637-87.447-217.984-87.212zM1050.555-47.593c-41.326-0.044-82.255 7.992-120.448 23.647-38.193 15.657-72.904 38.625-102.144 67.594s-52.439 63.37-68.27 101.235c-15.831 37.868-23.985 78.459-23.992 119.455-0.010 40.993 8.125 81.587 23.939 119.462 15.816 37.873 38.999 72.284 68.227 101.266s63.926 51.965 102.113 67.638c38.185 15.672 79.112 23.726 120.435 23.7 6.336-0.12 12.372-2.703 16.809-7.191s6.922-10.524 6.922-16.809c0-6.287-2.488-12.321-6.925-16.809-4.439-4.488-10.473-7.068-16.809-7.188-35.773-0.169-71.15-7.46-104.033-21.437s-62.602-34.358-87.401-59.937c-24.799-25.577-44.17-55.831-56.968-88.97s-18.76-68.49-17.536-103.956c3.556-66.089 31.621-128.538 78.794-175.334 47.176-46.797 110.129-74.637 176.75-78.164 35.756-1.234 71.401 4.669 104.817 17.357s63.921 31.903 89.71 56.507c25.789 24.602 46.336 54.090 60.421 86.717s21.422 67.727 21.576 103.222c-0.381 181.688-59.766 358.42-169.354 503.998l-116.124 153.598c-3.686 5.101-5.212 11.43-4.252 17.634 0.963 6.203 4.334 11.786 9.395 15.552s11.407 5.417 17.679 4.597c6.275-0.819 11.973-4.043 15.877-8.981l116.127-153.596c139.223-180.858 279.030-577.177 82.65-757.593-58.419-56.154-136.64-87.447-217.984-87.212z" />
<glyph unicode="&#xe90d;" glyph-name="user" data-tags="user" horiz-adv-x="896" d="M626 352c148.003 0 270-121.997 270-270.003v-49.997c0-54.003-44-96-96-96h-704c-54 0-96 41.997-96 96v49.997c0 148.006 120 270.003 268 270.003 58 0 84-32 180-32 94 0 120 32 178 32zM800 32v49.997c0 96-78.003 174.003-174 174.003-30 0-76-32-178-32-104 0-150 32-180 32-96 0-172-78.003-172-174.003v-49.997h704zM448 384c-160 0-288 128-288 288 0 158 128 288 288 288 158 0 288-130 288-288 0-160-130-288-288-288zM448 864c-106 0-192-88-192-192 0-106 86-192 192-192 104 0 192 86 192 192 0 104-88 192-192 192z" />
<glyph unicode="&#xe90e;" glyph-name="sidebar" data-tags="sidebar" d="M312 902.8c-108.8-14-173.8-50.8-215.6-121.8-17-29-30.2-70.2-37.8-119-3.2-21-3.6-39.8-3.6-213 0-199.2 0-201 9.2-245 23.2-112.6 87.4-177.8 200-202.8 50.2-11 60.6-11.4 260-10.6 162.4 0.6 185.2 1 203.8 4.2 146.4 24.2 214.6 93 237.4 239.2 3.2 21 3.6 40.2 3.6 214s-0.4 193-3.6 214c-13 83.2-41.4 141.4-87.4 179-37.8 31-83 49.2-150 60.2-18.8 3.2-40.6 3.6-208 4-148 0.4-191.4-0.2-208-2.4zM700.2 840c132.6-13 191.8-72.6 203.8-206 1.6-17.4 2-79.6 1.4-203-0.8-190-0.8-189.4-11.2-229.4-23.4-90.2-82.6-134.8-194-145.6-11.8-1.2-85.8-2-173.4-2h-152.8v788h152.8c87.6 0 161.6-0.8 173.4-2zM310 448c0-339.2-0.4-390-2.8-390-7.4 0-46 8.6-59.4 13-72.8 24.8-111 75.2-125.2 165.4-3.2 20.6-3.6 39.8-3.6 211.6s0.4 191 3.6 211.6c16.4 103 63.8 154.6 160.4 174.4 10 2 20 3.8 22.6 3.8l4.4 0.2v-390zM624.8 584.8c-3.4-1.6-32.2-29.2-64.2-61.4-50.4-50.4-58.6-59.6-60.4-66.8-4.8-18.2-4-19.4 61.4-85 63.2-63.4 68.4-67.6 83-64.8 23.8 4.4 34.6 29.6 21.4 49.4-3.2 4.8-24.6 27.4-47.4 50.4l-41.6 41.4 45.2 45.6c38.8 38.8 45.8 46.6 47.6 54 4.2 15.4-2.2 30.4-16 37.4-7.2 3.8-21.2 3.8-29-0.2z" />
<glyph unicode="&#xe90f;" glyph-name="instagram" data-tags="instagram" horiz-adv-x="1109" d="M554.667 686.5c136.5 0 249.167-112.666 249.167-249.167 0-138.667-112.666-249.167-249.167-249.167-138.667 0-249.167 110.5-249.167 249.167 0 136.5 110.5 249.167 249.167 249.167zM554.667 274.833c88.834 0 160.334 71.5 160.334 162.5 0 88.834-71.5 160.334-160.334 160.334-91 0-162.5-71.5-162.5-160.334 0-91 73.667-162.5 162.5-162.5zM870.997 695.166c0-32.5-25.998-58.499-58.498-58.499s-58.499 25.999-58.499 58.499c0 32.5 25.999 58.5 58.499 58.5s58.498-26 58.498-58.5zM1035.665 636.667c4.335-80.167 4.335-320.667 0-400.834-4.335-78-21.666-145.167-77.995-203.663-56.337-56.337-125.67-73.668-203.67-78.003-80.167-4.335-320.667-4.335-400.834 0-78 4.335-145.167 21.666-203.667 78.003-56.333 58.496-73.666 125.663-78 203.663-4.333 80.166-4.333 320.666 0 400.834 4.333 78 21.667 147.333 78 203.667 58.5 56.333 125.667 73.666 203.667 78 80.166 4.333 320.666 4.333 400.834 0 78-4.333 147.333-21.667 203.67-78 56.329-56.334 73.66-125.667 77.995-203.667zM931.669 151.334c26.001 62.833 19.499 214.5 19.499 286 0 69.333 6.502 221-19.499 286-17.34 41.167-49.835 75.833-91.003 91-65 26-216.666 19.5-286 19.5-71.5 0-223.166 6.501-286-19.5-43.334-17.334-75.833-49.834-93.167-91-26-65-19.5-216.666-19.5-286 0-71.5-6.5-223.166 19.5-286 17.334-43.334 49.833-75.831 93.167-93.17 62.833-25.993 214.5-19.499 286-19.499 69.333 0 221-6.494 286 19.499 41.168 17.34 75.831 49.836 91.003 93.17z" />
<glyph unicode="&#xe910;" glyph-name="close" data-tags="close" d="M51.4 908.6l-51.4-51.6 409-409-409-409 51.4-51.6 51.6-51.4 409 409 409-409 51.6 51.4 51.4 51.6-409 409 409 409-51.4 51.6-51.6 51.4-409-409-409 409-51.6-51.4z" />
<glyph unicode="&#xe911;" glyph-name="send" data-tags="send" d="M931 871.2c-29.6-11.4-246.6-94.2-482-184.2-235.4-89.8-430.6-164.8-433.8-166.6-18.2-10.6-19.8-36.6-3-48.8 2.8-2.2 66.2-27.4 141-56.2l135.8-52.6 1-170c1-159.4 1.2-170.4 4.6-175.4 12.4-19 41.4-17.4 52 2.6 2.2 3.8 28.2 55.2 58 114.2l54.4 107.4 132-98c72.6-54 136-100.8 140.8-103.8 15-9.6 34.4-6.6 43 6.6 1.6 2.6 58.4 186.4 126.2 408.6 97.8 320.6 123 405.6 122.4 411.6-1.2 9.4-5.8 16.4-14 21.4-11.8 7.2-20 5.4-78.4-16.8zM781 748.2c-3.4-3-455.8-324.8-461.2-327.8-4.8-3-9.6-1.4-105.6 35.6-55.4 21.4-99.8 39.2-99 39.4 1 0.4 151.2 57.8 333.8 127.4 182.6 69.8 332.4 127 333 127 0.4 0.2 0-0.6-1-1.6zM913 700.6c-128-421-178-584-179.2-585.4-0.8-0.8-15.8 9-33.4 22-182 134.8-206.2 153.4-204.8 155.6 1.6 2.8 430.4 455.2 431.4 455.2 0.2 0-6-21.4-14-47.4zM741.8 640.6c-19.8-20.6-298.2-314.8-310.2-327.6-6.8-7.6-16.4-24.4-38.2-68-16-31.8-32.4-63.8-36.2-71l-7.2-13v206.4l127.4 90.8c70.2 50 161.4 114.8 202.6 144.2s75.4 53.6 75.8 53.6c0.6 0-5.8-7-14-15.4z" />
<glyph unicode="&#xe912;" glyph-name="calendar-days" data-tags="calendar-days" horiz-adv-x="843" d="M752.941 809.412c48.941 0 90.353-41.412 90.353-90.353v-662.588c0-50.827-41.412-90.353-90.353-90.353h-662.588c-50.824 0-90.353 39.526-90.353 90.353v662.588c0 48.941 39.529 90.353 90.353 90.353h90.353v97.882c0 11.294 9.412 22.588 22.588 22.588h15.059c11.294 0 22.588-11.294 22.588-22.588v-97.882h361.412v97.882c0 11.294 9.409 22.588 22.588 22.588h15.059c11.294 0 22.588-11.294 22.588-22.588v-97.882h90.353zM90.353 749.176c-16.941 0-30.118-15.059-30.118-30.118v-90.353h722.824v90.353c0 15.059-15.059 30.118-30.118 30.118h-662.588zM752.941 26.353c15.059 0 30.118 13.179 30.118 30.118v512h-722.824v-512c0-16.938 13.176-30.118 30.118-30.118h662.588zM278.588 327.529h-75.294c-13.176 0-22.588 9.409-22.588 22.588v75.294c0 11.294 9.412 22.588 22.588 22.588h75.294c11.294 0 22.588-11.294 22.588-22.588v-75.294c0-13.179-11.294-22.588-22.588-22.588zM459.294 327.529h-75.294c-13.176 0-22.588 9.409-22.588 22.588v75.294c0 11.294 9.412 22.588 22.588 22.588h75.294c11.294 0 22.588-11.294 22.588-22.588v-75.294c0-13.179-11.294-22.588-22.588-22.588zM640 327.529h-75.294c-13.176 0-22.588 9.409-22.588 22.588v75.294c0 11.294 9.412 22.588 22.588 22.588h75.294c11.294 0 22.588-11.294 22.588-22.588v-75.294c0-13.179-11.294-22.588-22.588-22.588zM459.294 146.824h-75.294c-13.176 0-22.588 9.409-22.588 22.588v75.294c0 11.294 9.412 22.588 22.588 22.588h75.294c11.294 0 22.588-11.294 22.588-22.588v-75.294c0-13.179-11.294-22.588-22.588-22.588zM278.588 146.824h-75.294c-13.176 0-22.588 9.409-22.588 22.588v75.294c0 11.294 9.412 22.588 22.588 22.588h75.294c11.294 0 22.588-11.294 22.588-22.588v-75.294c0-13.179-11.294-22.588-22.588-22.588zM640 146.824h-75.294c-13.176 0-22.588 9.409-22.588 22.588v75.294c0 11.294 9.412 22.588 22.588 22.588h75.294c11.294 0 22.588-11.294 22.588-22.588v-75.294c0-13.179-11.294-22.588-22.588-22.588z" />
<glyph unicode="&#xe913;" glyph-name="check" data-tags="check" horiz-adv-x="1229" d="M1091.734 906.667c13.332 13.333 34.666 13.333 45.329 0l77.339-74.667c10.663-13.333 10.663-34.666 0-45.333l-800.003-799.999c-13.333-13.332-32-13.332-45.333 0l-357.333 354.666c-10.667 13.333-10.667 34.666 0 45.333l77.334 77.334c10.667 10.666 32 10.666 45.333 0l256-258.668 701.334 701.334z" />
<glyph unicode="&#xe914;" glyph-name="star-of-life" data-tags="star-of-life" d="M946.827 299.291c15.059-7.529 20.703-26.347 11.288-41.406l-60.235-103.532c-7.529-15.059-26.347-18.824-41.406-11.294l-254.121 146.824v-293.647c0-16.938-15.059-30.118-30.118-30.118h-122.353c-15.059 0-30.118 13.179-30.118 30.118v293.647l-254.118-146.824c-15.059-7.529-33.882-3.765-41.412 11.294l-60.235 103.532c-9.412 15.059-3.765 33.876 11.294 41.406l254.118 148.709-254.118 146.824c-15.059 7.529-20.706 26.353-11.294 41.412l60.235 103.529c7.529 15.059 26.353 18.824 41.412 11.294l254.118-146.824v295.529c0 15.059 15.059 30.118 30.118 30.118h122.353c15.059 0 30.118-15.059 30.118-30.118v-295.529l254.121 146.824c15.059 9.412 33.876 3.765 41.406-11.294l60.235-103.529c9.415-15.059 3.771-33.882-11.288-41.412l-254.121-146.824 254.121-148.709z" />
<glyph unicode="&#xe915;" glyph-name="software-product" data-tags="software-product" horiz-adv-x="1043" d="M653.977 61.397c-131.765-45.201-279.042-19.348-387.534 67.249 2.806 6.15 4.385 12.971 4.385 20.158 0 26.86-21.854 48.713-48.713 48.713-7.192 0-14.018-1.581-20.167-4.388-71.925 90.073-102.291 207.043-83.979 320.492l21.873-30.288c2.838-3.928 7.274-6.016 11.776-6.016 2.943 0 5.916 0.894 8.482 2.75 6.496 4.69 7.96 13.761 3.269 20.257l-41.294 57.18c-2.253 3.12-5.653 5.219-9.452 5.829-3.799 0.618-7.686-0.309-10.806-2.562l-57.18-41.293c-6.496-4.692-7.96-13.763-3.269-20.258 4.693-6.496 13.764-7.961 20.258-3.269l27.263 19.689c-18.807-121.204 14.203-245.935 91.407-341.884-4.374-7.302-6.896-15.837-6.896-24.952 0-26.86 21.853-48.713 48.712-48.713 9.117 0 17.652 2.523 24.956 6.898 78.558-63.188 176.292-96.515 275.104-96.515 47.497 0 95.241 7.697 141.221 23.47 7.579 2.599 11.616 10.854 9.017 18.434-2.601 7.583-10.851 11.623-18.432 9.021zM202.422 148.804c0 10.858 8.834 19.692 19.692 19.692 10.856 0 19.691-8.834 19.691-19.692s-8.832-19.692-19.691-19.692c-10.86 0.002-19.692 8.834-19.692 19.692zM388.645 834.606c131.776 45.211 279.051 19.357 387.536-67.246-2.806-6.148-4.386-12.971-4.386-20.162 0-26.859 21.852-48.713 48.713-48.713 7.19 0 14.016 1.579 20.165 4.386 72.365-90.477 102.609-205.934 84.002-320.519l-21.895 30.318c-4.688 6.496-13.759 7.959-20.257 3.269-6.498-4.692-7.961-13.763-3.269-20.258l41.291-57.18c2.253-3.12 5.652-5.219 9.452-5.829 0.769-0.125 1.542-0.184 2.311-0.184 3.031 0 6.008 0.95 8.495 2.746l57.18 41.293c6.496 4.692 7.959 13.763 3.269 20.258-4.692 6.494-13.763 7.961-20.258 3.269l-27.292-19.707c9.151 59.096 6.159 120.281-8.885 178.021-15.507 59.524-43.937 115.941-82.492 163.892 4.372 7.3 6.892 15.831 6.892 24.945 0 26.86-21.852 48.712-48.713 48.712-9.112 0-17.646-2.521-24.948-6.894-116.31 93.565-274.687 121.634-416.33 73.038-7.581-2.599-11.618-10.853-9.019-18.434 2.605-7.584 10.858-11.623 18.438-9.021zM840.199 747.198c0-10.856-8.834-19.691-19.692-19.691s-19.692 8.834-19.692 19.691c0 10.858 8.834 19.692 19.692 19.692s19.692-8.834 19.692-19.692zM157.409 919.49v26c0 8.014 6.496 14.51 14.51 14.51s14.51-6.496 14.51-14.51v-26c0-8.014-6.496-14.51-14.51-14.51s-14.51 6.496-14.51 14.51zM73.85 915.323c-4.007 6.94-1.629 15.814 5.311 19.821 6.942 4.007 15.814 1.629 19.821-5.311l12.999-22.518c4.007-6.94 1.629-15.814-5.311-19.821-2.286-1.32-4.78-1.947-7.243-1.947-5.014 0-9.892 2.602-12.578 7.257l-12.999 22.518zM39.086 834.419l-22.518 12.999c-6.94 4.007-9.32 12.881-5.313 19.821 4.007 6.942 12.885 9.318 19.821 5.313l22.518-12.999c6.94-4.007 9.32-12.881 5.313-19.821-2.686-4.656-7.566-7.257-12.58-7.257-2.462 0-4.956 0.626-7.24 1.944zM231.858 907.316l13.001 22.518c4.008 6.94 12.884 9.317 19.821 5.311 6.941-4.007 9.318-12.881 5.312-19.821l-13.001-22.518c-2.687-4.656-7.565-7.257-12.578-7.257-2.463 0-4.956 0.626-7.242 1.947-6.941 4.009-9.318 12.883-5.312 19.821zM284.935 839.732c-4.007 6.94-1.627 15.814 5.314 19.821l22.517 12.999c6.937 4.003 15.814 1.627 19.821-5.313s1.627-15.814-5.314-19.821l-22.517-12.999c-2.284-1.318-4.779-1.944-7.241-1.944-5.014 0-9.892 2.601-12.58 7.257zM267.303 791.059c0 52.593-42.788 95.381-95.384 95.381s-95.381-42.788-95.381-95.381c0-26.687 8.679-40.118 17.072-53.108 7.508-11.62 15.238-23.595 18.782-49.698-7.819-4.945-13.038-13.643-13.038-23.559v-28.854c0-15.124 12.106-27.471 27.134-27.87 0.576-14.45 12.512-26.026 27.101-26.026h36.663c14.589 0 26.523 11.577 27.101 26.026 15.030 0.397 27.136 12.744 27.136 27.87v28.854c0 9.918-5.219 18.618-13.038 23.561 3.545 26.103 11.273 38.078 18.78 49.698 8.393 12.986 17.073 26.419 17.073 53.107zM215.466 636.978h-12.603c-8.013 0-14.511-6.498-14.511-14.511v-11.506h-32.865v11.506c0 8.013-6.496 14.511-14.51 14.511h-12.603v26.574h87.092v-26.574zM225.855 753.699c-8.406-13.010-18.626-28.847-23.098-61.125h-16.328v75.057l27.425 15.832c6.939 4.007 9.317 12.881 5.31 19.821s-12.876 9.32-19.821 5.311l-27.424-15.833-27.424 15.833c-6.94 4.009-15.814 1.632-19.821-5.311-4.007-6.94-1.629-15.814 5.311-19.821l27.424-15.832v-75.057h-16.328c-4.471 32.278-14.693 48.119-23.098 61.125-7.483 11.581-12.427 19.233-12.427 37.359 0 36.593 29.771 66.361 66.363 66.361s66.364-29.768 66.364-66.361c0-18.129-4.945-25.781-12.428-37.359zM1007.731 161.477c-9.514 0-17.374 5.263-21.027 14.079s-1.813 18.095 4.915 24.825c9.972 9.976 9.972 26.201 0 36.177l-23.837 23.835c-9.974 9.974-26.203 9.972-36.175 0-6.73-6.727-16.013-8.564-24.825-4.911-8.816 3.651-14.079 11.512-14.079 21.027 0 14.105-11.474 25.581-25.581 25.581h-33.704c-14.105 0-25.581-11.476-25.581-25.581 0-9.516-5.263-17.376-14.079-21.027-8.816-3.655-18.097-1.815-24.825 4.913-9.976 9.976-26.203 9.974-36.177 0l-23.833-23.833c-4.831-4.831-7.492-11.257-7.492-18.088 0-6.835 2.662-13.258 7.492-18.089 6.729-6.729 8.564-16.010 4.911-24.825-3.651-8.816-11.512-14.079-21.026-14.079-14.107 0-25.58-11.476-25.58-25.581v-33.704c0-14.107 11.474-25.581 25.58-25.581 9.514 0 17.374-5.263 21.026-14.079 3.653-8.816 1.815-18.097-4.911-24.825-4.831-4.831-7.492-11.255-7.492-18.089s2.662-13.258 7.492-18.088l23.833-23.835c4.831-4.831 11.257-7.492 18.089-7.492 6.835 0 13.26 2.661 18.091 7.49 6.74 6.742 16.023 8.59 24.835 4.939 8.81-3.647 14.068-11.519 14.068-21.053 0-14.105 11.476-25.581 25.581-25.581h33.706c14.105 0 25.581 11.476 25.581 25.581 0 9.514 5.261 17.374 14.077 21.027 8.814 3.653 18.097 1.815 24.825-4.913 9.972-9.974 26.203-9.974 36.179 0l23.833 23.835c9.972 9.972 9.974 26.201 0 36.177-6.729 6.729-8.564 16.010-4.913 24.825 3.653 8.816 11.513 14.079 21.027 14.079 14.107 0 25.581 11.474 25.581 25.581v33.704c-0.006 14.103-11.482 25.58-25.585 25.58zM1004.291 105.524c-19.851-1.244-36.667-13.221-44.399-31.887s-4.31-39.027 8.847-53.942l-19.123-19.123c-14.915 13.159-35.278 16.581-53.942 8.847-18.665-7.73-30.644-24.548-31.887-44.399h-27.041c-1.242 19.869-13.213 36.696-31.874 44.427-18.657 7.728-39.026 4.299-53.955-8.875l-19.121 19.123c13.157 14.917 16.579 35.278 8.847 53.942-7.73 18.665-24.55 30.644-44.397 31.887v27.041c19.849 1.244 36.667 13.221 44.397 31.885 7.73 18.667 4.31 39.029-8.847 53.942l19.121 19.123c14.917-13.157 35.281-16.581 53.942-8.847 18.667 7.732 30.646 24.548 31.887 44.399h27.041c1.242-19.851 13.221-36.667 31.887-44.399 18.661-7.73 39.027-4.31 53.942 8.847l19.123-19.123c-13.159-14.915-16.579-35.278-8.847-53.942 7.728-18.663 24.548-30.642 44.399-31.885v-27.041zM850.268 214.53c-52.652 0-95.485-42.835-95.485-95.487 0-52.65 42.835-95.485 95.485-95.485s95.487 42.837 95.487 95.485c0 52.654-42.835 95.487-95.487 95.487zM850.268 52.578c-36.65 0-66.465 29.817-66.465 66.465 0 36.65 29.815 66.467 66.465 66.467s66.467-29.817 66.467-66.467c0-36.648-29.817-66.465-66.467-66.465zM528.566 714.698c-4.491 2.592-10.020 2.592-14.511 0l-220.086-127.067c-4.489-2.592-7.256-7.382-7.256-12.565v-254.133c0-5.183 2.767-9.974 7.256-12.565l220.086-127.064c2.245-1.296 4.751-1.944 7.256-1.944s5.010 0.646 7.256 1.944l220.086 127.065c4.489 2.592 7.254 7.382 7.254 12.565v254.131c0 5.183-2.765 9.974-7.254 12.565l-220.086 127.067zM521.311 685.38l191.065-110.313-50.411-29.106-191.065 110.313 50.411 29.106zM521.311 464.755l-191.065 110.311 50.411 29.106 191.065-110.313-50.411-29.104zM600.742 510.615l-191.065 110.313 32.204 18.594 191.065-110.313-32.204-18.594zM615.251 485.484l32.204 18.592v-72.38l-32.204-18.592v72.38zM315.735 549.936l191.065-110.313v-220.622l-191.065 110.309v220.625zM535.82 219.002v220.622l50.411 29.106v-80.756c0-5.183 2.765-9.974 7.256-12.565 2.245-1.296 4.751-1.944 7.256-1.944s5.010 0.648 7.254 1.944l61.226 35.347c4.489 2.592 7.254 7.382 7.254 12.565v97.511l50.411 29.106v-220.624l-191.065-110.311z" />
<glyph unicode="&#xe916;" glyph-name="outsourcing" data-tags="outsourcing" horiz-adv-x="1043" d="M660.467 822c0 8.836 7.164 16 16 16h161.585c41.906 0 76.001-34.094 76.001-76.001v-85.917l19.113 21.832c5.818 6.65 15.926 7.323 22.578 1.501 6.647-5.82 7.319-15.928 1.499-22.578l-47.151-53.861c-3.038-3.47-7.427-5.459-12.039-5.459s-9 1.988-12.040 5.459l-47.151 53.861c-5.82 6.65-5.148 16.756 1.501 22.578 6.649 5.82 16.758 5.148 22.578-1.501l19.112-21.832v85.917c0 24.263-19.737 44.001-44 44.001h-161.585c-8.84 0-16.002 7.164-16.002 16zM895.311 268.845c-8.836 0-16-7.164-16-16v-121.588c0-11.709-4.588-22.746-12.921-31.081-8.332-8.332-19.368-12.919-31.074-12.919h-125.918l21.83 19.11c6.649 5.82 7.321 15.93 1.501 22.578-5.822 6.649-15.932 7.321-22.578 1.501l-53.862-47.151c-3.47-3.040-5.461-7.427-5.461-12.040s1.99-9 5.461-12.040l53.861-47.151c3.035-2.657 6.792-3.96 10.532-3.96 4.452 0 8.881 1.847 12.042 5.459 5.822 6.649 5.152 16.756-1.499 22.578l-21.834 19.115h125.924c20.251 0 39.323 7.918 53.699 22.293 14.379 14.375 22.297 33.451 22.297 53.708v121.588c0.002 8.836-7.162 16-15.999 16zM366.153 89.997h-161.587c-11.709 0-22.746 4.589-31.078 12.921-8.334 8.332-12.92 19.37-12.92 31.077v85.919l19.112-21.832c3.164-3.614 7.592-5.461 12.045-5.461 3.74 0 7.499 1.303 10.532 3.96 6.649 5.82 7.321 15.93 1.501 22.578l-47.15 53.862c-3.038 3.469-7.426 5.459-12.040 5.459s-9-1.99-12.040-5.459l-47.152-53.862c-5.822-6.649-5.15-16.758 1.5-22.578 6.65-5.816 16.758-5.148 22.578 1.501l19.114 21.834v-85.921c0-20.255 7.916-39.327 22.292-53.704s33.45-22.295 53.706-22.295h161.587c8.836 0 16 7.164 16 16s-7.164 16-16 16zM147.307 627.157c8.836 0 16 7.164 16 16v121.586c0 11.708 4.588 22.746 12.922 31.078 8.334 8.334 19.37 12.92 31.079 12.92h125.917l-21.832-19.112c-6.649-5.822-7.319-15.929-1.501-22.578 3.165-3.614 7.592-5.461 12.048-5.461 3.739 0 7.498 1.305 10.53 3.96l53.862 47.152c3.47 3.038 5.461 7.426 5.461 12.040s-1.99 9-5.461 12.038l-53.861 47.152c-6.65 5.824-16.756 5.152-22.576-1.5-5.822-6.648-5.152-16.756 1.499-22.578l21.834-19.116h-125.92c-20.253 0-39.329-7.916-53.705-22.292-14.378-14.374-22.296-33.448-22.296-53.704v-121.586c0-8.838 7.164-16 16-16zM1031.309 325.999c0-8.836-7.164-16-16-16h-234.513c-8.834 0-15.999 7.164-15.999 16 0 54.466 32.861 101.378 79.788 122.020-15.909 14.526-25.907 35.419-25.907 58.608 0 43.766 35.609 79.373 79.375 79.373s79.373-35.605 79.373-79.373c0-23.189-9.998-44.082-25.905-58.608 46.925-20.642 79.788-67.554 79.788-122.020zM850.68 506.627c0-26.123 21.251-47.374 47.374-47.374 26.121 0 47.374 21.251 47.374 47.374 0 26.121-21.251 47.374-47.374 47.374-26.125 0-47.374-21.251-47.374-47.374zM998.046 341.997c-7.691 48.258-49.601 85.256-99.993 85.256s-92.303-36.998-99.995-85.256h199.987zM467.841 820.018c-15.907 14.526-25.907 35.42-25.907 58.608 0 43.766 35.609 79.374 79.375 79.374s79.375-35.608 79.375-79.374c0-23.188-9.998-44.082-25.907-58.608 46.927-20.644 79.788-67.555 79.788-122.021 0-8.836-7.164-15.999-16-15.999h-234.511c-8.836 0-16 7.162-16 15.999 0 54.466 32.861 101.379 79.788 122.021zM521.309 831.252c26.121 0 47.374 21.25 47.374 47.374s-21.253 47.374-47.374 47.374c-26.121 0-47.374-21.252-47.374-47.374s21.253-47.374 47.374-47.374zM421.315 713.998h199.989c-7.693 48.258-49.604 85.254-99.995 85.254s-92.301-36.996-99.995-85.254zM261.822 309.998h-234.513c-8.836 0-16 7.164-16 16 0 54.466 32.862 101.378 79.788 122.020-15.908 14.526-25.906 35.419-25.906 58.608 0 43.766 35.608 79.373 79.374 79.373s79.374-35.605 79.374-79.373c0-23.189-9.998-44.082-25.907-58.608 46.927-20.644 79.788-67.556 79.788-122.024 0-8.832-7.161-15.997-15.999-15.997zM97.191 506.627c0-26.123 21.252-47.374 47.374-47.374s47.373 21.251 47.373 47.374c0 26.121-21.249 47.374-47.373 47.374s-47.374-21.251-47.374-47.374zM244.559 341.997c-7.691 48.258-49.603 85.256-99.994 85.256s-92.302-36.998-99.994-85.256h199.988zM654.565-46c0-8.836-7.164-16-16-16h-234.511c-8.836 0-16 7.164-16 16 0 54.466 32.861 101.376 79.786 122.020-15.909 14.526-25.905 35.419-25.905 58.608 0 43.766 35.607 79.373 79.375 79.373s79.375-35.607 79.375-79.373c0-23.189-10-44.084-25.905-58.608 46.925-20.644 79.786-67.554 79.786-122.020zM521.272 87.254h0.037c0 0 0.026 0 0.037 0 26.105 0.020 47.337 21.264 47.337 47.374 0 26.121-21.253 47.374-47.374 47.374s-47.374-21.253-47.374-47.374c0-26.11 21.232-47.352 47.337-47.374zM621.304-29.999c-7.691 48.243-49.582 85.234-99.955 85.253-0.013 0-0.024 0-0.039 0s-0.026 0-0.039 0c-50.373-0.019-92.264-37.009-99.954-85.253h199.987zM738.321 448.002c0-119.657-97.349-217.008-217.008-217.008 0 0 0 0-0.002 0h-0.002c-119.655 0.002-217.004 97.353-217.004 217.008 0 119.659 97.349 217.006 217.004 217.008h0.004c119.661 0 217.008-97.347 217.008-217.008zM356.765 363.492h58.567c-4.619 21.232-7.529 44.263-8.423 68.507h-69.904c2.109-24.5 9.004-47.651 19.759-68.507zM584.553 564.509c-12.519 32.861-29.672 55.585-47.244 64.391v-64.391h47.244zM537.311 532.508v-68.507h66.355c-0.998 24.991-4.284 48.022-9.257 68.507h-57.098zM458.069 564.509h47.242v64.391c-17.572-8.808-34.723-31.532-47.242-64.391zM448.216 532.508c-4.975-20.486-8.261-43.516-9.259-68.507h66.353v68.507h-57.095zM415.331 532.508h-58.567c-10.754-20.856-17.648-44.008-19.756-68.507h69.902c0.892 24.245 3.802 47.275 8.421 68.507zM448.218 363.492h57.093v68.507h-66.353c1-24.993 4.286-48.022 9.261-68.507zM458.071 331.491c12.517-32.857 29.668-55.579 47.24-64.385v64.385h-47.24zM584.553 331.491h-47.242v-64.387c17.57 8.806 34.723 31.528 47.242 64.387zM594.408 363.492c4.973 20.484 8.259 43.514 9.259 68.507h-66.353v-68.507h57.095zM627.291 363.492h58.573c10.754 20.856 17.648 44.008 19.758 68.507h-69.906c-0.896-24.245-3.804-47.275-8.425-68.507zM705.624 464c-2.108 24.5-9.002 47.651-19.756 68.507h-58.573c4.621-21.232 7.531-44.263 8.423-68.507h69.906zM593.034 618.543c10.071-15.073 18.721-33.327 25.565-54.034h46.316c-19.045 23.429-43.688 42.131-71.881 54.034zM377.711 564.509h46.313c6.846 20.705 15.494 38.957 25.566 54.032-28.194-11.903-52.835-30.605-71.879-54.032zM449.59 277.467c-10.071 15.071-18.719 33.321-25.565 54.024h-46.311c19.045-23.425 43.684-42.124 71.875-54.024zM664.913 331.491h-46.315c-6.846-20.703-15.494-38.955-25.563-54.026 28.19 11.899 52.833 30.601 71.877 54.026z" />
<glyph unicode="&#xe917;" glyph-name="custom-software" data-tags="custom-software" horiz-adv-x="1098" d="M1014.086 384.041c-2.53 0.002-5.036-0.495-7.373-1.463-2.338-0.966-4.463-2.385-6.252-4.174s-3.208-3.914-4.176-6.252c-0.966-2.337-1.463-4.843-1.463-7.373v-162.76c-0.002-5.107-2.033-10.005-5.645-13.617s-8.51-5.641-13.617-5.645h-908.46c-5.108 0.004-10.006 2.033-13.618 5.645s-5.642 8.51-5.646 13.617v579.818c0.004 5.108 2.034 10.006 5.646 13.617s8.509 5.642 13.617 5.646h403.174c5.111 0 10.009 2.030 13.623 5.642 3.612 3.612 5.641 8.512 5.641 13.621s-2.029 10.009-5.641 13.621c-3.614 3.613-8.512 5.642-13.623 5.642h-403.174c-15.322-0.017-30.011-6.111-40.845-16.945s-16.928-25.523-16.945-40.845v-579.818c0.017-15.321 6.111-30.011 16.945-40.845s25.523-16.928 40.845-16.944h373.359v-58.994c-0.047-15.503-2.057-30.936-5.982-45.933-206.113-12.335-280.573-66.052-284.003-68.632-3.937-3.106-6.508-7.624-7.167-12.597-0.658-4.971 0.648-10.004 3.641-14.029 2.993-4.023 7.437-6.721 12.389-7.522 4.951-0.799 10.019 0.363 14.126 3.241 0.883 0.639 90.465 63.602 347.849 63.602 275.337-1.327 334.872-62.963 359.268-67.366 4.007 0.074 7.89 1.389 11.119 3.761 3.228 2.374 5.643 5.688 6.911 9.49 1.268 3.8 1.327 7.902 0.171 11.737-1.158 3.835-3.474 7.218-6.634 9.685-3.429 2.579-77.895 56.298-284.019 68.63-6.029 34.628-8.030 69.837-5.963 104.926h373.395c15.321 0.017 30.011 6.11 40.845 16.944s16.928 25.524 16.944 40.845v162.76c0.002 2.53-0.495 5.036-1.463 7.373-0.966 2.338-2.385 4.463-4.174 6.252s-3.914 3.208-6.252 4.174c-2.337 0.968-4.843 1.465-7.373 1.463zM474.332 41.157c3.024 14.5 4.582 29.266 4.653 44.077v58.995h84.653c-1.651-34.427-0.097-68.934 4.647-103.072-29.757 0.966-64.197 0.966-93.953 0zM1050.108 712.981c-0.547 0.024-1.076 0.207-1.521 0.529-0.445 0.32-0.786 0.765-0.981 1.277-6.317 33.593-23.066 56.452-32.098 81.792 6.719 7.936 10.199 18.114 9.743 28.502s-4.813 20.222-12.202 27.539l-32.357 32.357c-7.309 7.414-17.153 11.788-27.555 12.245-10.4 0.457-20.59-3.037-28.523-9.781-26.159 13.279-53.531 24.025-81.738 32.089-0.529 0.204-0.985 0.56-1.313 1.022s-0.512 1.011-0.531 1.577c-0.866 10.359-5.604 20.011-13.273 27.029-7.667 7.019-17.698 10.889-28.093 10.839h-45.75c-10.281 0.053-20.21-3.731-27.847-10.613s-12.431-16.366-13.446-26.596c0.019-1.362-0.674-2.972-1.899-3.236-27.76-6.682-54.304-17.663-78.671-32.544-0.501-0.256-1.069-0.35-1.624-0.269-0.557 0.081-1.074 0.333-1.48 0.721-7.937 6.717-18.115 10.194-28.503 9.737s-20.221-4.814-27.538-12.202l-32.357-32.375c-7.388-7.317-11.744-17.15-12.2-27.538-0.458-10.388 3.020-20.566 9.737-28.503-8.981-25.227-25.838-48.386-32.109-81.794-0.199-0.521-0.549-0.972-1.005-1.294s-0.998-0.499-1.556-0.512c-10.361-0.862-20.013-5.6-27.034-13.269-7.019-7.669-10.888-17.702-10.834-28.097v-45.75c-0.050-10.408 3.83-20.45 10.864-28.119 7.036-7.671 16.706-12.402 27.078-13.249 0.549-0.022 1.078-0.209 1.521-0.534 0.441-0.324 0.776-0.775 0.963-1.29 6.358-33.63 23.15-56.549 32.116-81.773-6.719-7.937-10.197-18.114-9.741-28.503s4.813-20.223 12.2-27.54l32.375-32.394c7.323-7.375 17.155-11.72 27.536-12.169 10.383-0.451 20.553 3.027 28.486 9.741 0.411 0.38 0.929 0.626 1.482 0.706 0.555 0.080 1.119-0.007 1.622-0.253 24.371-14.904 50.932-25.892 78.708-32.563 1.199-0.233 1.86-1.942 1.882-3.254 1.013-10.225 5.803-19.705 13.439-26.585 7.633-6.878 17.559-10.661 27.834-10.607h45.75c10.409-0.047 20.452 3.839 28.121 10.877s12.4 16.712 13.245 27.086c0.026 0.551 0.216 1.080 0.544 1.523 0.33 0.441 0.782 0.776 1.301 0.961 28.207 8.080 55.577 18.84 81.736 32.135 7.928-6.742 18.108-10.238 28.504-9.789s20.24 4.811 27.555 12.212l32.375 32.375c7.391 7.321 11.748 17.159 12.2 27.549 0.454 10.393-3.029 20.573-9.754 28.51 9.011 25.244 25.848 48.346 32.109 81.775 0.197 0.527 0.551 0.981 1.011 1.303 0.462 0.322 1.009 0.497 1.571 0.503 10.359 0.864 20.011 5.602 27.032 13.269 7.019 7.669 10.888 17.702 10.834 28.097v45.75c0.050 10.408-3.83 20.45-10.866 28.121-7.034 7.669-16.706 12.4-27.078 13.247zM1049.526 625.863c0.002-0.761-0.287-1.495-0.806-2.052-0.521-0.557-1.236-0.892-1.998-0.938-8.596-0.711-16.753-4.105-23.317-9.702s-11.206-13.113-13.271-21.489c-5.716-23.855-15.148-46.665-27.953-67.59-4.474-7.382-6.515-15.984-5.833-24.589s4.051-16.777 9.633-23.362c0.49-0.572 0.743-1.305 0.711-2.057-0.030-0.75-0.346-1.462-0.881-1.988l-32.375-32.375c-0.536-0.521-1.247-0.825-1.994-0.853s-1.478 0.222-2.052 0.702c-6.587 5.571-14.755 8.933-23.355 9.614-8.6 0.683-17.196-1.352-24.578-5.814-20.923-12.802-43.723-22.239-67.573-27.974-8.393-2.055-15.926-6.703-21.53-13.278-5.606-6.578-8.998-14.753-9.696-23.366-0.063-0.75-0.404-1.448-0.959-1.959-0.555-0.508-1.281-0.789-2.033-0.788h-45.75c-0.436 0.020-0.864 0.13-1.257 0.322-0.395 0.192-0.745 0.46-1.031 0.791-0.287 0.33-0.503 0.715-0.637 1.132s-0.181 0.855-0.141 1.29c-0.836 8.46-4.277 16.451-9.845 22.872-5.571 6.423-12.994 10.959-21.251 12.982-23.861 5.727-46.676 15.166-67.608 27.974-7.391 4.461-15.995 6.492-24.6 5.807s-16.779-4.051-23.371-9.626c-0.568-0.484-1.3-0.737-2.046-0.706s-1.454 0.344-1.979 0.875l-32.357 32.375c-0.534 0.527-0.851 1.238-0.883 1.988-0.032 0.752 0.223 1.486 0.713 2.057 5.582 6.589 8.952 14.766 9.629 23.375s-1.367 17.213-5.848 24.595c-12.796 20.916-22.228 43.712-27.953 67.552-2.054 8.395-6.699 15.928-13.277 21.532-6.58 5.602-14.757 8.989-23.37 9.678-0.748 0.063-1.445 0.406-1.951 0.961-0.505 0.555-0.782 1.279-0.776 2.029v45.75c-0.004 0.763 0.285 1.497 0.806 2.054 0.521 0.555 1.236 0.892 1.996 0.938 8.594 0.707 16.749 4.098 23.31 9.691 6.563 5.593 11.201 13.107 13.262 21.48 5.725 23.859 15.157 46.674 27.953 67.61 4.48 7.379 6.526 15.98 5.846 24.586-0.678 8.606-4.046 16.78-9.627 23.365-0.49 0.57-0.745 1.305-0.713 2.056s0.348 1.462 0.883 1.989l32.358 32.375c0.523 0.533 1.229 0.849 1.975 0.884s1.478-0.213 2.050-0.695c6.583-5.591 14.759-8.969 23.37-9.654 8.609-0.686 17.216 1.356 24.6 5.835 20.938 12.797 43.751 22.236 67.61 27.973 8.255 2.027 15.678 6.563 21.247 12.985s9.009 14.412 9.849 22.871c-0.041 0.435 0.006 0.873 0.14 1.289s0.35 0.8 0.637 1.129c0.287 0.329 0.639 0.597 1.031 0.786 0.395 0.189 0.821 0.296 1.259 0.315h45.75c0.765 0.002 1.501-0.29 2.057-0.815s0.89-1.243 0.933-2.007c0.717-8.593 4.113-16.745 9.708-23.306 5.597-6.561 13.111-11.2 21.484-13.264 23.852-5.721 46.659-15.147 67.59-27.935 7.378-4.484 15.98-6.533 24.587-5.854s16.781 4.050 23.364 9.635c0.573 0.485 1.307 0.737 2.057 0.706 0.748-0.031 1.46-0.344 1.988-0.875l32.375-32.375c0.534-0.524 0.849-1.23 0.884-1.976s-0.214-1.479-0.696-2.050c-5.591-6.58-8.968-14.752-9.654-23.359s1.355-17.211 5.835-24.593c12.807-20.945 22.247-43.773 27.974-67.647 2.070-8.378 6.723-15.894 13.299-21.484 6.576-5.591 14.744-8.972 23.345-9.668 0.748-0.063 1.445-0.406 1.951-0.961s0.782-1.281 0.776-2.031v-45.75zM776.792 831.176c-36.082 0-71.354-10.699-101.356-30.746s-53.386-48.539-67.195-81.875c-13.807-33.336-17.421-70.019-10.381-105.409s24.416-67.897 49.93-93.411c25.514-25.514 58.020-42.889 93.409-49.928s72.073-3.426 105.409 10.381c33.336 13.809 61.829 37.192 81.875 67.193s30.746 65.275 30.746 101.357c-0.058 48.368-19.298 94.737-53.499 128.938s-80.57 53.441-128.938 53.499zM776.792 504.828c-28.462 0-56.286 8.44-79.952 24.254-23.666 15.812-42.111 38.288-53.004 64.585s-13.742 55.231-8.188 83.147c5.552 27.916 19.259 53.559 39.385 73.685s45.767 33.833 73.683 39.386c27.916 5.553 56.852 2.703 83.149-8.189 26.296-10.891 48.772-29.338 64.585-53.004s24.254-51.489 24.254-79.952c-0.045-38.154-15.22-74.732-42.2-101.711-26.978-26.978-63.557-42.155-101.711-42.2zM207.68 430.361c-1.789 1.789-3.912 3.21-6.248 4.178-2.338 0.968-4.843 1.467-7.373 1.467-2.528 0-5.034-0.499-7.371-1.467s-4.46-2.389-6.248-4.178l-65.051-65.052c-1.789-1.787-3.209-3.912-4.177-6.248s-1.467-4.841-1.467-7.371c0-2.53 0.498-5.034 1.467-7.371s2.388-4.461 4.177-6.248l65.051-65.052c1.788-1.789 3.912-3.208 6.248-4.176 2.338-0.968 4.843-1.465 7.371-1.465 2.53 0 5.034 0.497 7.373 1.465 2.337 0.968 4.459 2.387 6.248 4.176 1.787 1.787 3.206 3.912 4.174 6.248s1.467 4.841 1.467 7.371c0 2.53-0.499 5.034-1.467 7.371s-2.387 4.461-4.174 6.248l-51.432 51.435 51.432 51.431c1.789 1.787 3.208 3.912 4.176 6.248s1.467 4.843 1.467 7.371c0 2.53-0.499 5.034-1.467 7.371s-2.387 4.461-4.176 6.248zM408.101 300.259c-3.612-3.612-5.641-8.51-5.641-13.619 0-5.107 2.029-10.007 5.641-13.619s8.51-5.641 13.619-5.641c5.109 0 10.007 2.029 13.619 5.641l65.052 65.052c1.789 1.787 3.21 3.912 4.178 6.248s1.467 4.843 1.467 7.371c0 2.53-0.499 5.034-1.467 7.371s-2.389 4.461-4.178 6.25l-65.052 65.052c-1.787 1.787-3.912 3.206-6.248 4.174s-4.843 1.467-7.371 1.467c-2.53 0-5.034-0.499-7.371-1.467s-4.461-2.387-6.248-4.174c-1.789-1.789-3.208-3.912-4.176-6.25s-1.465-4.841-1.465-7.371c0-2.528 0.497-5.032 1.465-7.371 0.968-2.337 2.387-4.459 4.176-6.248l51.431-51.431-51.431-51.435zM305.463 421.404l-32.507-130.102c-0.613-2.454-0.735-5.003-0.363-7.505 0.372-2.5 1.234-4.902 2.536-7.071 1.301-2.167 3.016-4.057 5.049-5.563 2.031-1.504 4.34-2.594 6.794-3.206 2.452-0.613 5.003-0.737 7.503-0.365 2.5 0.374 4.904 1.234 7.071 2.536s4.059 3.018 5.563 5.049c1.504 2.033 2.595 4.342 3.208 6.794l32.505 130.102c1.13 4.915 0.287 10.080-2.35 14.381s-6.857 7.395-11.752 8.616c-4.893 1.223-10.072 0.477-14.422-2.080-4.349-2.554-7.522-6.716-8.836-11.586z" />
<glyph unicode="&#xe918;" glyph-name="arrow-right2" data-tags="arrow-right2" horiz-adv-x="1097" d="M534.857 944c9.143 11.429 27.429 11.429 38.857 0l477.714-477.714c11.425-11.429 11.425-27.429 0-38.857l-477.714-477.714c-11.429-11.432-29.714-11.432-38.857 0l-45.714 43.425c-11.429 11.432-11.429 29.718 0 38.861l354.282 356.571h-779.425c-16 0-27.429 11.429-27.429 27.429v64c0 13.714 11.429 27.429 27.429 27.429h779.425l-354.282 354.286c-11.429 9.143-11.429 27.429 0 38.857l45.714 43.429z" />
<glyph unicode="&#xe919;" glyph-name="arrow-left2" data-tags="arrow-left2" horiz-adv-x="1097" d="M562.286 944c-9.143 11.429-27.429 11.429-38.857 0l-477.714-477.714c-11.429-11.429-11.429-27.429 0-38.857l477.714-477.714c11.429-11.425 29.714-11.425 38.857 0l45.714 43.432c11.429 11.425 11.429 29.711 0 38.853l-354.286 356.571h779.429c15.996 0 27.429 11.429 27.429 27.429v64c0 13.714-11.432 27.429-27.429 27.429h-779.429l354.286 354.286c11.429 9.143 11.429 27.429 0 38.857l-45.714 43.429z" />
<glyph unicode="&#xe91a;" glyph-name="close-2" data-tags="close-2" d="M1024 736.906l-223.075 223.094-288.925-288.926-288.906 288.926-223.094-223.094 288.926-288.906-288.926-288.925 223.094-223.075 288.906 288.905 288.925-288.905 223.075 223.075-288.905 288.925 288.905 288.906z" />
<glyph unicode="&#xe91b;" glyph-name="chat-2" data-tags="chat-2" horiz-adv-x="996" d="M114.826 169.287c-33.267 0-65.767 8.488-95.221 25.028-15.155 7.805-21.024 27.332-11.971 42.021 30.080 48.065 40.942 106.82 27.17 162.079-14.275 57.284-34.93 105.532-34.782 166.175 0.513 212.76 177.602 385.244 390.145 381.116 205.292-4.135 374.482-176.707 374.482-382.052 0.003-268.186-281.057-456.476-529.184-352.913-34.201-26.846-77.189-41.455-120.639-41.455zM74.403 234.766c46.741-14.518 99.309-2.921 135.353 31.926 8.881 8.587 22.165 10.749 33.308 5.419 212.43-101.567 462.446 57.628 462.443 291.544 0 174.547-141.998 319.409-316.53 322.924-179.867 3.573-329.382-142.1-329.816-322.13-0.141-57.603 22.333-103.634 34.615-158.199 12.939-57.503 6.124-118.309-19.374-171.483zM880.737-49.778c-43.449 0-86.437 14.612-120.633 41.452-131.959-55.071-288.922-29.992-397.119 63.445-12.359 10.675-13.724 29.346-3.052 41.708 10.675 12.359 29.346 13.73 41.705 3.052 95.963-82.87 236.496-101.513 350.862-46.837 11.142 5.333 24.422 3.169 33.308-5.419 36.042-34.844 88.613-46.447 135.353-31.923-30.077 62.734-34.244 134.608-10.937 201.145 0.21 0.6 0.441 1.189 0.686 1.775 17.024 40.129 25.6 82.779 25.495 126.76-0.188 77.545-25.981 149.274-74.601 207.442-10.473 12.533-8.804 31.178 3.726 41.651 12.53 10.476 31.181 8.804 41.654-3.726 56.764-67.914 88.146-155.002 88.363-245.222 0.125-51.678-9.902-101.828-29.801-149.083-20.901-60.501-11.287-125.284 22.184-179.169 9.060-14.692 3.186-34.219-11.972-42.030-29.451-16.532-61.958-25.020-95.221-25.023zM382.325 515.413c25.842 0 46.791 20.938 46.791 46.766s-20.949 46.766-46.791 46.766c-25.842 0-46.791-20.938-46.791-46.766s20.949-46.766 46.791-46.766zM209.943 515.413c25.841 0 46.79 20.938 46.79 46.766s-20.949 46.766-46.79 46.766c-25.841 0-46.79-20.938-46.79-46.766s20.948-46.766 46.79-46.766zM554.715 515.413c25.839 0 46.788 20.938 46.788 46.766s-20.949 46.766-46.788 46.766c-25.842 0-46.791-20.938-46.791-46.766s20.949-46.766 46.791-46.766z" />
<glyph unicode="&#xe91c;" glyph-name="quote2" data-tags="quote2" horiz-adv-x="1341" d="M120.471 18.823c-75.294 82.825-120.471 173.177-120.471 323.765 0 263.529 188.235 496.942 451.765 617.412l67.765-97.882c-248.471-135.53-301.177-308.705-316.235-421.647 37.648 22.588 90.354 30.117 143.058 22.588 135.531-15.058 240.942-120.471 240.942-263.529 0-67.765-30.117-135.529-75.294-188.235-52.706-52.706-112.942-75.294-188.235-75.294-82.823 0-158.118 37.648-203.294 82.823zM873.412 18.823c-75.294 82.825-120.471 173.177-120.471 323.765 0 263.529 188.235 496.942 451.765 617.412l67.765-97.882c-248.471-135.53-301.177-308.705-316.235-421.647 37.648 22.588 90.352 30.117 143.058 22.588 135.529-15.058 240.942-120.471 240.942-263.529 0-67.765-30.117-135.529-75.294-188.235s-112.942-75.294-188.235-75.294c-82.823 0-158.119 37.648-203.294 82.823z" />
<glyph unicode="&#xe91d;" glyph-name="star" data-tags="star" horiz-adv-x="1144" d="M517.647 896c22.588 45.176 86.585 43.294 107.294 0l124.235-250.353 274.824-39.529c48.941-7.529 67.765-67.765 31.997-103.529l-197.644-193.882 47.056-272.938c7.529-48.941-45.176-86.588-88.468-64l-244.706 129.879-246.588-129.879c-43.294-22.588-96 15.059-88.471 64l47.059 272.938-197.647 193.882c-35.765 35.765-16.941 96 32 103.529l276.706 39.529 122.353 250.353z" />
<glyph unicode="&#xe91e;" glyph-name="machine" data-tags="machine" horiz-adv-x="1080" d="M1029.55 906.378c-23.165 9.455-56.208 18.052-98.218 25.555-8.549 1.521-16.723-4.17-18.25-12.721-1.529-8.553 4.167-16.725 12.72-18.252 97.101-17.339 113.859-34.949 116.315-38.49-2.696-3.884-22.556-24.686-145.73-43.322-7.691-1.162-13.377-7.773-13.377-15.552v-436.676c-35.937 4.964-75.571 9.097-118.384 12.338 4.081 6.905 6.771 14.725 7.674 23.074h33.029c20.283 0 36.78 16.501 36.78 36.78v69.466c0 20.281-16.498 36.78-36.78 36.78h-14.457c18.164 56.011 12.117 117.551-16.846 169.61-4.224 7.591-13.798 10.322-21.394 6.099-7.591-4.224-10.322-13.804-6.097-21.394 22.442-40.342 28.769-87.316 18.155-131.346-10.059 17.099-28.644 28.605-49.873 28.605h-145.341c-48.817 13.003-77.818 45.024-104.992 75.299-6.228 6.866-15.375 9.896-24.496 8.097-9.080-1.791-16.375-8.045-19.512-16.728-11.629-32.837-27.313-54.676-48.452-66.67h-12.962c-20.795 0-39.052-11.035-49.245-27.553-3.783 15.436-5.744 32.15-5.744 49.582 0 44.987 24.027 92.592 57.128 113.195 20.91 13.014 42.565 14.174 64.365 3.446 6.181-3.046 13.629-1.709 18.369 3.299 50.437 53.272 128.542 71.88 198.978 47.412 22.303-7.744 42.641-19.278 60.451-34.28 6.645-5.597 16.566-4.746 22.165 1.899 5.597 6.643 4.748 16.566-1.895 22.165-20.765 17.49-44.451 30.926-70.401 39.937-78.561 27.294-165.385 8.522-224.351-47.68-28.201 10.274-57.757 7.036-84.305-9.486-42.369-26.373-71.965-83.903-71.965-139.904 0-26.222 3.917-51.25 11.433-73.603h-15.501c-20.283 0-36.78-16.499-36.78-36.78v-69.466c0-20.279 16.498-36.78 36.78-36.78h33.029c0.903-8.347 3.593-16.162 7.673-23.066-41.986-3.18-80.918-7.216-116.284-12.057v436.073c0 7.788-5.701 14.405-13.403 15.556-125.031 18.711-145.097 39.727-147.805 43.63 2.72 3.922 22.944 25.104 149.38 43.874 96.405 14.315 222.765 22.197 355.803 22.197 115.859 0 225.358-5.856 316.664-16.937 8.605-1.049 16.464 5.097 17.51 13.721s-5.096 16.465-13.722 17.511c-92.536 11.23-203.346 17.165-320.451 17.165-140.011 0-271.762-8.576-370.986-24.147-48.899-7.675-87.502-16.689-114.733-26.792-21.989-8.161-51.221-21.865-51.221-46.59v-339.618c0-8.687 7.041-15.731 15.731-15.731s15.731 7.043 15.731 15.731v301.743c23.162-11.905 62.792-24.011 130.039-34.794v-540.722c-114.806 18.91-128.875 39.156-130.039 41.263v154.92c0 8.689-7.041 15.731-15.731 15.731s-15.731-7.041-15.731-15.731v-155.385c0-20.851 18.132-51.284 174.903-74.746 0.776-0.115 1.554-0.173 2.328-0.173 3.742 0 7.391 1.335 10.269 3.813 3.467 2.988 5.463 7.339 5.463 11.917v104.755c42.749 5.982 91.017 10.758 143.833 14.224 19.583-36.918 58.74-80.816 89.22-104.653l-6.723-57.502-36.799-11.070c-2.54 3.83-5.773 7.222-9.683 9.916-9.179 6.326-20.571 8.114-31.252 4.904l-61.954-18.626c-59.455-17.894-102.99-67.005-113.598-128.097l-16.041-90.047c-1.525-8.553 4.174-16.723 12.727-18.246 8.566-1.527 16.723 4.176 18.245 12.727l16.054 90.114c8.572 49.353 43.699 88.982 91.672 103.42l61.952 18.627c2.024 0.605 3.593-0.166 4.34-0.681 0.743-0.51 2.007-1.679 2.156-3.761 3.495-48.601 14.952-140.806 52.423-212.264 2.811-5.364 8.281-8.43 13.945-8.43 2.459 0 4.958 0.579 7.293 1.802 7.693 4.033 10.659 13.543 6.626 21.236-31.733 60.513-43.485 138.4-47.834 186.677l28.324 8.52c1.912-15.388 7.956-30.046 17.596-42.012 14.859-18.441 43.3-40.819 94.394-42.703 0.199-0.006 0.395-0.009 0.59-0.009 8.421 0 15.397 6.667 15.71 15.151 0.318 8.684-6.461 15.98-15.142 16.298-31.508 1.16-55.415 11.592-71.056 31.003-8.607 10.679-12.593 24.941-10.934 39.126l6.282 53.753c27.451-16.112 55.134-24.654 81.607-24.654 26.479 0 54.17 8.546 81.626 24.667l6.271-53.773c1.651-14.18-2.333-28.436-10.936-39.113-5.507-6.837-12.191-12.653-19.862-17.285-7.438-4.493-9.827-14.159-5.334-21.597 2.955-4.893 8.153-7.6 13.48-7.6 2.769 0 5.572 0.732 8.118 2.266 10.825 6.539 20.279 14.775 28.097 24.479 9.735 12.081 15.796 26.914 17.641 42.466l28.307-8.585c-4.321-48.245-16.047-126.395-47.869-187.074-4.033-7.693-1.067-17.203 6.626-21.236 2.331-1.223 4.83-1.802 7.293-1.802 5.662 0 11.136 3.066 13.945 8.43 37.471 71.458 48.929 163.663 52.423 212.264 0.149 2.085 1.415 3.251 2.156 3.761 0.747 0.518 2.312 1.292 4.342 0.68l61.945-18.624c47.979-14.44 83.106-54.069 91.691-103.487l16.041-90.049c1.525-8.553 9.687-14.247 18.244-12.727 8.553 1.525 14.252 9.693 12.727 18.246l-16.030 89.98c-10.622 61.161-54.155 110.27-113.614 128.166l-61.95 18.624c-10.679 3.213-22.074 1.424-31.252-4.902-3.793-2.614-6.954-5.883-9.462-9.573l-37.076 11.244-6.645 57.001c30.485 24.323 67.048 64.007 89.185 104.629 53.68-3.526 102.653-8.399 145.94-14.515v-104.145c0-4.584 2-8.937 5.474-11.927 2.208-1.88 6.537-4.321 12.61-3.625 154.881 23.429 172.79 53.697 172.79 74.426v572.593c0 25.811-33.362 39.431-44.324 43.907zM810.649 508.578v-69.466c0-2.932-2.387-5.319-5.319-5.319h-32.686v80.105h32.686c2.932 0 5.319-2.387 5.319-5.319zM446.972 644.697c14.653-16.149 30.536-33.161 50.649-47.763h-77.673c12.58 15.135 20.897 32.146 27.024 47.763zM332.692 539.101c0 14.541 11.828 26.371 26.367 26.371h355.752c14.543 0 26.369-11.83 26.369-26.371v-130.513c0-14.543-11.828-26.371-26.369-26.371h-97.513c-9.449-0.108-22.252 6.55-27.916 17.97-4.852 9.786-12.318 17.998-21.588 23.744-9.393 5.827-19.985 8.821-30.78 8.821-4.606 0-9.251-0.546-13.854-1.651-16.855-4.044-31.115-15.647-39.128-31.837-5.204-10.516-15.725-17.049-27.46-17.049h-97.515c-14.541 0-26.367 11.828-26.367 26.371v130.515zM263.226 439.112v69.466c0 2.932 2.387 5.319 5.319 5.319h32.686v-80.105h-32.686c-2.932-0.002-5.319 2.385-5.319 5.319zM536.937 231.649c-53.201-0.721-117.622 48.575-164.399 119.108h82.827c23.826 0 46.35 12.884 56.748 34.321 3.843 7.922 10.558 13.556 18.387 15.433 8.131 1.951 16.529 0.162 23.204-5.051 3.55-2.774 6.237-6.513 8.082-10.624 8.98-19.992 32.353-34.207 55.51-34.079h84.035c-44.054-68.366-114.018-121.342-164.395-119.108zM1042.413 290.343c-1.158-2.096-15.058-22.1-127.942-40.915v540.709c65.983 10.701 105.023 22.679 127.942 34.46v-534.254zM569.409 329.091c-18.505-14.906-44.347-14.906-62.849 0-6.768 5.453-16.671 4.383-22.12-2.381-5.45-6.766-4.383-16.669 2.383-22.117 15.062-12.133 33.112-18.203 51.163-18.203s36.101 6.070 51.163 18.203c6.766 5.448 7.831 15.353 2.381 22.117-5.453 6.764-15.356 7.835-22.12 2.381z" />
<glyph unicode="&#xe91f;" glyph-name="augmented" data-tags="augmented" d="M908.578 193.022c-8.285 0-14.999-6.716-14.999-14.999v-13.036c0-35.84-29.158-65-65-65h-111.765c-19.298 0-35-15.703-35-35v-93.985c0-2.755-2.242-4.999-4.999-4.999h-389.541c-2.757 0-4.999 2.243-4.999 4.999v113.446c0 8.285-6.716 15.001-15.001 15.001-8.287 0-15.001-6.716-15.001-15.001v-113.446c0-19.298 15.703-35 35-35h389.541c19.298 0 35 15.703 35 35v93.985c0 2.755 2.242 5.001 4.999 5.001h111.765c52.38 0 94.999 42.617 94.999 94.999v13.036c0 8.283-6.714 14.999-15.001 14.999zM1013.548 327.537l-88.243 167.793c-1.13 2.147-1.724 4.56-1.724 6.984v54.754c0 105.99-40.679 206.191-114.539 282.14-74.119 76.216-173.11 119.098-278.729 120.744-102.013 1.566-198.487-34.704-273.672-102.512l-33.075 33.076c-8.501 8.5-19.8 13.18-31.818 13.18h-94.708c-6.258 18.34-23.648 31.572-44.080 31.572-25.68 0-46.57-20.892-46.57-46.572s20.89-46.572 46.57-46.572c20.432 0 37.82 13.232 44.080 31.572h94.708c4.007 0 7.773-1.56 10.607-4.394l32.755-32.756c-66.072-68.988-104.59-157.509-110.094-252.48h-27.976c-6.258 18.341-23.648 31.573-44.080 31.573-25.68 0-46.57-20.893-46.57-46.573s20.89-46.572 46.57-46.572c20.432 0 37.82 13.232 44.080 31.573h27.34c1.47-96.405 36.638-186.753 100.045-258.225l-64.909-64.909c-8.5-8.499-13.18-19.799-13.18-31.818v-38.46c-18.34-6.258-31.572-23.647-31.572-44.079 0-25.68 20.892-46.573 46.572-46.573s46.573 20.893 46.573 46.573c0 20.432-13.232 37.819-31.573 44.079v38.46c0 4.005 1.56 7.773 4.394 10.607l64.423 64.421c0.782-0.761 1.545-1.538 2.335-2.296 3.042-2.919 4.79-6.922 4.79-10.987v-109.812c0-8.283 6.714-15.001 15.001-15.001 8.285 0 14.999 6.717 14.999 15.001v109.812c0 12.2-5.113 24.098-14.031 32.643-0.637 0.611-1.251 1.236-1.882 1.849l53.982 53.982 19.376-19.376c4.72-4.722 11-7.324 17.678-7.324s12.956 2.601 17.68 7.323l43.367 43.367c11.571-6.053 23.684-11.080 36.104-14.976v-61.308c0-13.787 11.216-25 25-25h82.246c13.787 0 25 11.214 25 25v61.308c12.418 3.897 24.529 8.922 36.104 14.976l43.369-43.367c9.748-9.747 25.607-9.741 35.356 0.002l58.154 58.156c4.723 4.723 7.324 11.003 7.324 17.68 0 6.678-2.601 12.956-7.323 17.676l-43.367 43.369c6.053 11.566 11.078 23.682 14.976 36.104h61.308c13.785 0 25 11.214 25 24.999v82.246c0 13.787-11.216 25-25 25h-61.308c-3.899 12.42-8.922 24.535-14.976 36.104l43.365 43.365c4.723 4.722 7.324 11 7.324 17.678s-2.601 12.958-7.323 17.678l-58.159 58.16c-9.747 9.74-25.604 9.742-35.354-0.002l-43.367-43.368c-11.567 6.055-23.682 11.080-36.104 14.978v61.308c0 13.786-11.214 25-25 25h-82.246c-13.785 0-25-11.214-25-25v-61.308c-12.422-3.898-24.535-8.924-36.104-14.978l-43.371 43.372c-9.747 9.744-25.607 9.746-35.354-0.002l-16.905-16.906-44.942 44.94c69.371 62.042 158.145 95.212 251.969 93.75 97.628-1.522 189.148-41.178 257.692-111.664 68.385-70.317 106.044-163.090 106.044-261.224v-54.754c0-7.267 1.787-14.509 5.172-20.945l88.246-167.796c1.143-2.171 0.4-4.008-0.143-4.911-0.546-0.903-1.826-2.415-4.282-2.415h-53.993c-19.298 0-35-15.701-35-35v-28.627c0-8.283 6.716-15.001 15.001-15.001 8.287 0 15.001 6.717 15.001 15.001v28.627c0 2.757 2.242 5.001 4.999 5.001h53.993c12.368 0 23.567 6.321 29.96 16.907 6.395 10.583 6.775 23.437 1.017 34.382zM52.959 872.123c-9.136 0-16.57 7.434-16.57 16.572s7.434 16.572 16.57 16.572c9.138 0 16.572-7.434 16.572-16.572s-7.434-16.572-16.572-16.572zM161.333 100.002c-9.138 0-16.572 7.434-16.572 16.572s7.434 16.572 16.572 16.572c9.138 0 16.572-7.434 16.572-16.572s-7.432-16.572-16.572-16.572zM52.959 552.493c-9.136 0-16.57 7.434-16.57 16.572s7.434 16.572 16.57 16.572c9.138 0 16.572-7.434 16.572-16.572s-7.434-16.572-16.572-16.572zM245.682 317.101c-57.767 65.771-89.847 148.605-91.303 236.965h69.269v-26.125c0-13.785 11.214-24.999 24.999-24.999h61.306c3.899-12.42 8.926-24.537 14.978-36.104l-43.369-43.371c-9.745-9.747-9.745-25.606 0-35.354l17.568-17.568-53.447-53.443zM357.396 783.423l42.464-42.464c7.781-7.781 19.972-9.529 29.648-4.254 11.793 6.431 24.276 11.608 37.106 15.394 10.558 3.115 17.935 12.971 17.935 23.965v60.026h72.246v-60.028c0-10.996 7.375-20.85 17.935-23.967 12.828-3.785 25.31-8.961 37.102-15.392 9.678-5.276 21.865-3.528 29.648 4.254l42.462 42.464 51.086-51.086-42.461-42.462c-7.786-7.782-9.534-19.977-4.256-29.648 6.429-11.789 11.607-24.274 15.39-37.108 3.12-10.558 12.975-17.931 23.967-17.931h60.027v-72.246h-60.027c-10.994 0-20.851-7.377-23.967-17.937-3.785-12.832-8.963-25.313-15.388-37.099-5.28-9.678-3.53-21.871 4.252-29.651l42.464-42.462-51.086-51.085-42.462 42.461c-7.779 7.786-19.975 9.536-29.646 4.256-11.793-6.429-24.28-11.61-37.1-15.392-10.562-3.113-17.939-12.968-17.939-23.965v-60.029h-72.246v60.029c0 10.996-7.377 20.852-17.937 23.963-12.824 3.783-25.308 8.963-37.102 15.392-9.68 5.28-21.873 3.528-29.649-4.254l-42.464-42.464-51.086 51.086 42.464 42.466c7.781 7.781 9.529 19.97 4.254 29.646-6.431 11.793-11.608 24.276-15.39 37.099-3.115 10.562-12.968 17.94-23.965 17.94h-60.029v72.246h60.029c10.996 0 20.851 7.375 23.963 17.935 3.783 12.824 8.961 25.308 15.392 37.102 5.275 9.674 3.526 21.867-4.254 29.648l-42.464 42.464 51.085 51.088zM281.563 714.659l43.369-43.367c-6.053-11.573-11.080-23.684-14.976-36.104h-61.306c-13.787 0-25-11.214-25-25v-26.123h-68.58c5.452 86.943 40.841 167.949 101.261 231.258l45.272-45.27-20.039-20.039c-9.747-9.745-9.747-25.606 0-35.354zM371.315 584.475c8.116-1.657 16.041 3.571 17.704 11.688 12.72 62.162 68.089 107.282 131.651 107.282 74.099 0 134.38-60.284 134.38-134.382 0-74.097-60.284-134.382-134.38-134.382-31.1 0-60.289 10.313-84.422 29.823-23.451 18.961-40.014 45.494-46.635 74.713-1.832 8.080-9.86 13.143-17.946 11.314-8.078-1.832-13.144-9.868-11.312-17.944 8.108-35.767 28.361-68.23 57.033-91.413 29.11-23.532 65.789-36.492 103.284-36.492 90.641 0 164.38 73.743 164.38 164.382 0 90.641-73.739 164.382-164.38 164.382-77.75 0-145.477-55.205-161.042-131.267-1.663-8.116 3.569-16.041 11.685-17.702z" />
<glyph unicode="&#xe920;" glyph-name="artificial" data-tags="artificial" d="M1008.994 463.003h-241.515v34.127h65.162c8.285 0 15.001 6.716 15.001 15.001 0 8.283-6.716 14.999-15.001 14.999h-65.162v34.131h45.24c16.853 0 32.701 6.561 44.617 18.48l98.65 98.65c6.429-3.202 13.554-4.906 20.947-4.906 12.571 0 24.39 4.897 33.28 13.785 8.888 8.89 13.785 20.707 13.785 33.28 0 12.571-4.897 24.39-13.785 33.28-8.888 8.888-20.709 13.785-33.28 13.785-12.573 0-24.39-4.897-33.28-13.783-8.89-8.89-13.787-20.709-13.787-33.28 0-7.393 1.704-14.518 4.906-20.947l-98.652-98.65c-6.248-6.25-14.561-9.694-23.403-9.694h-45.24v33.096c0 43.632-35.497 79.127-79.127 79.127h-33.096v132.79c18.616 6.278 32.064 23.892 32.064 44.6 0 25.952-21.115 47.064-47.065 47.064s-47.063-21.114-47.063-47.064c0-20.708 13.448-38.32 32.064-44.6v-132.788h-34.129v65.162c0 8.285-6.716 15.001-14.999 15.001-8.285 0-15.001-6.716-15.001-15.001v-65.162h-34.129v241.516c0 8.284-6.717 15-15.001 15s-15.001-6.716-15.001-15v-241.516h-34.127v65.162c0 8.285-6.716 15.001-15.001 15.001-8.283 0-14.999-6.716-14.999-15.001v-65.162h-34.129v45.238c0 16.853-6.563 32.7-18.48 44.616l-98.686 98.686c8.717 17.602 5.796 39.55-8.842 54.19-18.352 18.35-48.21 18.348-66.56 0-18.35-18.35-18.35-48.208 0-66.56 9.175-9.174 21.227-13.762 33.28-13.762 7.175 0 14.34 1.666 20.91 4.92l98.684-98.688c6.252-6.248 9.694-14.561 9.694-23.401v-45.238h-33.096c-6.69 0-13.344-0.84-19.776-2.493-8.021-2.065-12.852-10.242-10.787-18.266s10.244-12.854 18.266-10.787c3.99 1.026 8.125 1.547 12.295 1.547h352.707c27.089 0 49.128-22.040 49.128-49.128v-352.708c0-4.167-0.519-8.3-1.543-12.286-2.063-8.024 2.77-16.2 10.791-18.261 1.253-0.322 2.508-0.477 3.746-0.477 6.682 0 12.776 4.498 14.517 11.27 1.651 6.423 2.489 13.072 2.489 19.756v33.096h132.789c6.278-18.616 23.891-32.064 44.6-32.064 25.952 0 47.063 21.113 47.063 47.065s-21.113 47.063-47.063 47.063c-20.709 0-38.32-13.448-44.6-32.064h-132.789v34.131h65.162c8.285 0 15.001 6.716 15.001 15.001 0 8.283-6.716 14.999-15.001 14.999h-65.162v34.125h241.517c8.285 0 15.001 6.717 15.001 15.001s-6.716 15.001-15.001 15.001zM964.865 732.614c3.223 3.225 7.507 4.999 12.066 4.999 4.558 0 8.842-1.774 12.065-4.999 3.225-3.223 4.999-7.507 4.999-12.065 0-4.56-1.774-8.844-4.999-12.066-3.223-3.225-7.507-4.999-12.065-4.999-4.56 0-8.844 1.774-12.066 4.999-3.225 3.223-4.999 7.507-4.999 12.066s1.774 8.844 4.999 12.065zM251.515 900.866c-6.652-6.65-17.477-6.652-24.133 0.002-6.654 6.654-6.654 17.48 0 24.132 3.327 3.328 7.695 4.99 12.068 4.99 4.37 0 8.739-1.664 12.065-4.99 6.654-6.654 6.654-17.48 0-24.134zM640.253 863.808c-9.408 0-17.064 7.656-17.064 17.064s7.654 17.064 17.064 17.064c9.411 0 17.065-7.656 17.065-17.064s-7.658-17.064-17.065-17.064zM944.867 336.808c9.41 0 17.064-7.656 17.064-17.064 0-9.41-7.656-17.064-17.064-17.064s-17.064 7.656-17.064 17.064c-0.004 9.41 7.654 17.064 17.064 17.064zM817.824 16.349c-14.638 14.639-36.587 17.561-54.188 8.844l-98.686 98.688c-6.252 6.25-9.694 14.561-9.694 23.401v45.238h33.096c6.69 0 13.342 0.84 19.773 2.493 8.021 2.065 12.852 10.242 10.787 18.266s-10.238 12.852-18.266 10.789c-3.988-1.028-8.123-1.547-12.294-1.547h-352.707c-27.089 0-49.128 22.040-49.128 49.128v352.707c0 4.17 0.519 8.306 1.545 12.292 2.067 8.023-2.763 16.2-10.786 18.266s-16.202-2.763-18.266-10.786c-1.655-6.429-2.493-13.079-2.493-19.773v-33.096h-132.79c-6.278 18.616-23.892 32.064-44.6 32.064-25.952 0-47.064-21.111-47.064-47.063 0-25.954 21.114-47.065 47.064-47.065 20.708 0 38.32 13.448 44.6 32.064h132.788v-34.131h-65.162c-8.285 0-15.001-6.716-15.001-14.999 0-8.285 6.716-15.001 15.001-15.001h65.162v-34.127h-241.516c-8.284 0-15-6.716-15-15.001 0-8.283 6.716-14.999 15-14.999h241.516v-34.129h-65.162c-8.285 0-15.001-6.716-15.001-14.999 0-8.285 6.716-15.001 15.001-15.001h65.162v-34.129h-45.24c-16.855 0-32.7-6.563-44.616-18.48l-98.652-98.652c-6.428 3.202-13.554 4.906-20.946 4.906-12.572 0-24.39-4.897-33.28-13.783-8.886-8.89-13.782-20.711-13.782-33.28 0-12.571 4.896-24.39 13.786-33.28 8.888-8.89 20.708-13.785 33.28-13.785s24.39 4.897 33.28 13.785c8.89 8.89 13.786 20.707 13.786 33.28 0 7.391-1.704 14.517-4.906 20.945l98.652 98.652c6.25 6.25 14.561 9.693 23.403 9.693h45.24v-33.096c0-43.632 35.497-79.127 79.127-79.127h33.096v-132.787c-18.616-6.278-32.064-23.893-32.064-44.6 0-25.952 21.115-47.065 47.065-47.065s47.063 21.115 47.063 47.065c0 20.707-13.448 38.32-32.064 44.6v132.787h34.129v-65.162c0-8.283 6.716-15.001 14.999-15.001 8.285 0 15.001 6.717 15.001 15.001v65.162h34.125v-241.519c0-8.285 6.717-15.001 15.001-15.001s15.001 6.716 15.001 15.001v241.515h34.127v-65.162c0-8.285 6.716-15.001 15.001-15.001 8.283 0 14.999 6.716 14.999 15.001v65.162h34.129v-45.238c0-16.853 6.563-32.699 18.48-44.615l98.686-98.686c-8.717-17.603-5.796-39.551 8.845-54.19 9.173-9.177 21.227-13.763 33.278-13.763 12.053 0 24.107 4.586 33.28 13.763 18.35 18.35 18.35 48.208 0 66.558zM79.128 559.195c-9.41 0-17.064 7.656-17.064 17.065s7.656 17.064 17.064 17.064c9.408 0 17.064-7.656 17.064-17.064 0.002-9.411-7.654-17.065-17.064-17.065zM59.13 163.389c-3.224-3.225-7.508-4.999-12.066-4.999s-8.842 1.774-12.066 4.999c-3.224 3.225-4.998 7.509-4.998 12.066s1.774 8.842 4.998 12.065c3.224 3.225 7.508 4.999 12.066 4.999s8.842-1.774 12.066-4.999c3.224-3.223 4.998-7.507 4.998-12.065s-1.774-8.845-4.998-12.066zM400.805 15.131c0-9.408-7.654-17.064-17.064-17.064s-17.065 7.656-17.065 17.064c0 9.41 7.658 17.065 17.065 17.065s17.064-7.656 17.064-17.065zM796.612-28.998c-6.654-6.654-17.479-6.652-24.133 0-6.654 6.654-6.654 17.481 0 24.131 3.327 3.327 7.697 4.992 12.066 4.992 4.372 0 8.741-1.664 12.066-4.992 6.652-6.65 6.652-17.477 0-24.131zM671.288 488.079c0 32.079-23.463 59.254-55.585 68.083 0.95 3.923 1.478 7.957 1.478 12.079 0 30.372-26.959 55.080-60.090 55.080-17.948 0-34.071-7.257-45.090-18.73-11.020 11.473-27.145 18.73-45.091 18.73-33.133 0-60.088-24.708-60.088-55.080 0-4.122 0.527-8.157 1.476-12.079-32.122-8.827-55.585-36.002-55.585-68.083 0-15.678 5.548-30.471 15.798-42.686-10.022-12.973-15.798-28.724-15.798-45.492-0.004-25.503 13.623-49.318 36.069-64.089 0-0.013 0-0.024 0-0.037 0-34.792 31.003-63.097 69.111-63.097 21.899 0 41.437 9.357 54.108 23.913 12.67-14.556 32.208-23.913 54.106-23.913 36.674 0 66.752 26.22 68.964 59.204 22.275 12.923 36.216 35.561 36.216 60.006 0 17.98-7.665 35.131-20.86 48.094 13.193 12.964 20.86 30.119 20.86 48.096zM618.2 426.719c14.455-7.628 23.083-20.649 23.083-34.831 0-10.575-4.913-20.661-13.213-28.203-7.887 14.602-21.824 26.226-39.435 31.757-7.9 2.484-16.321-1.91-18.806-9.814s1.912-16.323 9.816-18.806c15.291-4.805 25.566-17.283 25.566-31.050 0-18.25-17.544-33.098-39.109-33.098-21.564 0-39.107 14.848-39.107 33.098v96.195c0 18.25 17.544 33.096 39.107 33.096 8.283 0 15.001 6.716 15.001 14.999 0 8.285-6.717 15.001-15.001 15.001-14.507 0-27.979-4.111-39.107-11.113v19.16c0 8.283-6.716 14.999-15.001 14.999-8.283 0-14.999-6.716-14.999-14.999v-83.274c-5.049 3.167-10.584 5.788-16.572 7.671-7.909 2.484-16.324-1.912-18.806-9.812-2.484-7.903 1.91-16.324 9.812-18.808 15.291-4.805 25.566-17.283 25.566-31.048v-32.064c0-18.25-17.544-33.098-39.109-33.098s-39.109 14.848-39.109 33.098c0 7.823 3.316 15.427 9.337 21.411 5.876 5.841 5.904 15.338 0.063 21.214s-15.336 5.904-21.212 0.063c-3.593-3.573-6.688-7.477-9.261-11.627-9.471 8.959-15.001 20.748-15.001 33.070 0 22.225 17.442 41.748 42.416 47.478 8.073 1.853 13.117 9.899 11.266 17.974-1.853 8.075-9.903 13.118-17.974 11.266-10.054-2.307-19.311-6.157-27.52-11.21-5.321 6.684-8.186 14.511-8.186 22.669 0.006 22.562 21.394 40.93 47.759 41.103 0.134-0.004 0.268-0.020 0.4-0.020 3.424 0 6.866 1.165 9.683 3.55 5.749 4.869 6.904 13.128 3.044 19.342-0.114 0.184-0.218 0.372-0.339 0.549-0.061 0.091-0.136 0.177-0.199 0.266-0.233 0.326-0.469 0.646-0.728 0.955-0.007 0.009-0.013 0.019-0.022 0.028-2.502 2.958-5.487 7.853-5.487 14.386 0 13.83 13.5 25.081 30.089 25.081 16.591 0 30.091-11.251 30.091-25.081 0-8.285 6.716-15.001 14.999-15.001 8.285 0 15.001 6.716 15.001 15.001 0 13.83 13.5 25.081 30.089 25.081 16.591 0 30.091-11.251 30.091-25.081 0-3.698-0.968-6.85-2.249-9.441-8.533-0.806-16.784-2.867-24.619-6.172-7.633-3.217-11.212-12.016-7.995-19.65 3.219-7.632 12.016-11.214 19.651-7.993 6.483 2.733 13.459 4.139 20.735 4.195 0.143-0.004 0.287-0.017 0.43-0.017 0.134 0 0.266 0.017 0.4 0.020 26.365-0.171 47.754-18.542 47.754-41.103 0-14.181-8.628-27.201-23.083-34.831-4.919-2.597-7.998-7.702-7.998-13.267 0-5.563 3.079-10.67 7.998-13.265z" />
<glyph unicode="&#xe921;" glyph-name="quote-left" data-tags="quote-left" horiz-adv-x="1084" d="M982.588 463.059c55.061 0 101.647-46.588 101.647-101.647v-271.059c0-57.175-46.586-101.647-101.647-101.647h-271.059c-57.175 0-101.647 44.472-101.647 101.647v508.235c0 186.353 150.353 338.824 338.824 338.824h16.938c27.534 0 50.827-23.294 50.827-50.824v-101.647c0-29.647-23.293-50.824-50.827-50.824h-16.938c-76.234 0-135.529-61.412-135.529-135.529v-135.529h169.412zM372.706 463.059c55.059 0 101.647-46.588 101.647-101.647v-271.059c0-57.175-46.588-101.647-101.647-101.647h-271.059c-57.176 0-101.647 44.472-101.647 101.647v508.235c0 186.353 150.353 338.824 338.824 338.824h16.941c27.529 0 50.824-23.294 50.824-50.824v-101.647c0-29.647-23.294-50.824-50.824-50.824h-16.941c-76.235 0-135.529-61.412-135.529-135.529v-135.529h169.412z" />
<glyph unicode="&#xe922;" glyph-name="arrow-left" data-tags="arrow-left" horiz-adv-x="652" d="M14.909 474.182l424.727 430.541c14.545 14.55 37.818 14.55 49.455 0l58.182-58.177c14.545-14.545 14.545-34.909 0-49.455l-343.273-349.091 343.273-346.182c14.545-14.545 14.545-37.818 0-49.455l-58.182-58.182c-11.636-14.545-34.909-14.545-49.455 0l-424.727 430.545c-14.545 14.545-14.545 34.909 0 49.455z" />
</font>
</defs>
</svg>
